Your IP Address is . Location is Your ISP and Government can track your torrent activity! Hide your IP with a VPN!

Red Sparrow 2018 HC 720p HDRip Eng Audio KorSub With Sample LLG

DOWNLOAD TORRENT DOWNLOAD PROTECT YOUR PRIVACY

Posted by LifeLongg •595 on April 16, 2018 in Movies » Drama , verified torrent

Size: 1.38 GB , Seeds: 8 , Peers: 5 ( Updated April 22, 2018 - Refresh )

* Download via Magnet Link , * To download files you need a Bittorrent Client , * How to download torrents from Bit Torrent Scene?

Scrape History ( seeds + peers )

Internal Files

Red.Sparrow.2018.HC.720p.HDRip.Eng.Audio.KorSub.With.Sample.LLG
Sample.ts   5.54 MB
Red.Sparrow.2018.HC.720p.HDRip.Eng.Audio.KorSub.With.Sample.LLG.mp4   1.37 GB

Hash Code

d003d5a46c770768522d6988b4c6ead574163e49

Description

SCREENSHOT

SCREENSHOT

******************************Thumbnail:**********************

SCREENSHOT

******************************Screenshots:********************

Screenshot 1

Screenshot 2

Screenshot 3

Screenshot 4

Screenshot 5

Screenshot 6

Screenshot 7

Screenshot 8

Screenshot 9

Screenshot 0

**************************************************************

Complete name : Red.Sparrow.2018.HC.720p.HDRip.Eng.Audio.KorSub.With.Sample.LLG.mp4
Format : MPEG-4
Format profile : Base Media
Codec ID : isom (isom/iso2/avc1/mp41)
File size : 1.37 GiB
Duration : 2 h 15 min
Overall bit rate : 1 445 kb/s
Writing application : Lavf57.56.101

Video
ID : 1
Format : AVC
Format/Info : Advanced Video Codec
Format profile : [email protected]
Format settings : CABAC / 4 Ref Frames
Format settings, CABAC : Yes
Format settings, RefFrames : 4 frames
Codec ID : avc1
Codec ID/Info : Advanced Video Coding
Duration : 2 h 15 min
Bit rate : 1 200 kb/s
Width : 1 904 pixels
Height : 800 pixels
Display aspect ratio : 2.40:1
Frame rate mode : Constant
Frame rate : 29.970 (29970/1000) FPS
Color space : YUV
Chroma subsampling : 4:2:0
Bit depth : 8 bits
Scan type : Progressive
Bits/(Pixel*Frame) : 0.026
Stream size : 1.12 GiB (82%)

Audio
ID : 2
Format : AC-3
Format/Info : Audio Coding 3
Codec ID : ac-3
Duration : 2 h 15 min
Bit rate mode : Constant
Bit rate : 256 kb/s
Channel(s) : 2 channels
Channel positions : Front: L R
Sampling rate : 48.0 kHz
Frame rate : 31.250 FPS (1536 SPF)
Bit depth : 16 bits
Compression mode : Lossy
Stream size : 249 MiB (18%)
Language : English
Service kind : Complete Main
Default : Yes
Alternate group : 1

Trackers

Refresh Leechers : Updated April 22, 2018

1. udp://tracker.openbittorrent.com:80/announce

2. udp://tracker.opentrackr.org:1337/announce

Comments

You must log in to add a comment.

Embed Code

Sharing Widget

Related torrents

FILENAME SIZE SEEDS PEERS ADDED UPD
[i] Red.Sparrow.2018.HC.HDRip.XviD.AC3-EVO[EtMovies] 1.31 GB 4238 897 1 week 2 days
[i] Red Sparrow 2018 HC HDRip XViD-ETRG
posted by juggs in Movies - Action
1.28 GB 90 38 1 week 2 days
[i] 18+ Red Sparrow 2018 1080p HC HDRip X264 AC3 LLG
posted by LifeLongg in Movies - Drama
2.02 GB 90 101 3 days 2 days
[i] Ashley Monroe - Sparrow (2018) Mp3 (320kbps) [Hunter] 101.25 MB 75 14 3 days 2 days
[i] Red Sparrow 2018 iTALiAN MD 720p HDTS x264-iSTANCE[MT]
posted by Survivalofmisa in Movies - Thriller
1.65 GB 54 5 1 month 1 week
[i] 18+ Red Sparrow 2018 HC HDRip XviD AC3 LLG
posted by LifeLongg in Movies - Drama
1005.99 MB 53 44 5 days 4 days
[i]
[i]
Red Sparrow 2018 HDCAM ENG X264 HQMic-BABY
Movies - Misc , Quality: Audio 4/10 - Video 7/10
2 GB 52 23 4 weeks 2 weeks
[i] Red Sparrow 2018 HDCAM 720p MP3 HQMic - Makintos13 964 MB 35 11 1 month 4 days
[i] 18+ RED SPARROW 2018 720p HC HDRip AC3 LLG
posted by LifeLongg in Movies - Drama
1.12 GB 24 11 1 week 1 day
[i] Red Sparrow 2018 1080p HC HDRip AAC 2 0 x264 [MW]
posted by moviefreak in Movies - Mystery
1.99 GB 22 5 1 week 1 day

Top Movies ( auto generated report )

FILENAME SIZE SEEDS PEERS ADDED UPD
[i] Pacific Rim 2 Uprising 2018 720p korsub hdrip x264 aac2 0-stuttershit 2.75 GB 3342 743 1 day 18 hours
[i] Genesis (2018) [WEBRip] [720p] [YTS AM] 965.85 MB 1369 860 1 day 19 hours
[i] The Debt Collector (2018) [BluRay] [720p] [YTS AM] 818.36 MB 1311 590 1 day 19 hours
[i] downloadhub in Sonu Ke Titu Ki Sweety (2018) Hindi 720p HDRip x264 AAC ESubs - Downloadhub 1.06 GB 1297 910 4 days 1 day
[i] Corbin Nash (2018) [WEBRip] [720p] [YTS AM] 824.69 MB 1240 725 1 day 19 hours
[i] Genesis (2018) [WEBRip] [1080p] [YTS AM] 1.81 GB 1010 581 1 day 19 hours
[i] Corbin Nash (2018) [WEBRip] [1080p] [YTS AM] 1.53 GB 923 421 1 day 19 hours
[i] The Debt Collector (2018) [BluRay] [1080p] [YTS AM] 1.54 GB 774 406 1 day 19 hours
[i] Looking Glass (2018) Nicolas Cage.720p.H264.italian.English.Ac3-5.1.sub.ita.eng.MIRCrew 1.89 GB 773 475 3 days 2 days
[i] Stephanie (2017) [WEBRip] [720p] [YTS AM] 738.22 MB 748 282 3 days 2 days